osu file format v14

[General]
AudioFilename: everlastingmessage.mp3
AudioLeadIn: 1500
PreviewTime: 83623
Countdown: 0
SampleSet: Soft
StackLeniency: 0.7
Mode: 0
LetterboxInBreaks: 0
WidescreenStoryboard: 0

[Editor]
Bookmarks: 8492,33536,69014,116884
DistanceSpacing: 1.1
BeatDivisor: 2
GridSize: 32
TimelineZoom: 1.999999

[Metadata]
Title:Everlasting Message
TitleUnicode:Everlasting Message
Artist:penoreri
ArtistUnicode:ぺのれり
Creator:Azer
Version:Asphyxia's BEGINNER
Source:SOUND VOLTEX III GRAVITY WARS
Tags:SDVX 3 sukiNathan guy asphyxia pkk julie mikii konami bemani
BeatmapID:776496
BeatmapSetID:302447

[Difficulty]
HPDrainRate:3
CircleSize:3
OverallDifficulty:3
ApproachRate:4
SliderMultiplier:0.8
SliderTickRate:1

[Events]
//Background and Video events
0,0,"bgeverlasting.png",0,0
//Break Periods
2,25388,31634
//Storyboard Layer 0 (Background)
//Storyboard Layer 1 (Fail)
//Storyboard Layer 2 (Pass)
//Storyboard Layer 3 (Foreground)
//Storyboard Sound Samples

[TimingPoints]
145,260.869565217391,4,2,1,70,1,0
927,-100,4,2,1,30,0,0
4449,-100,4,2,1,30,0,0
8492,-100,4,2,1,40,0,0
14753,-100,4,2,1,50,0,0
16840,-100,4,2,1,45,0,0
25188,-100,4,2,1,35,0,0
32884,-100,4,2,1,45,0,0
33536,-100,4,2,1,45,0,0
37710,-100,4,2,1,50,0,0
43971,-100,4,2,1,50,0,1
60666,-100,4,2,1,40,0,0
62753,-100,4,2,1,40,0,0
81536,-100,4,2,1,45,0,0
83623,-100,4,2,1,50,0,0
87797,-100,4,2,1,40,0,1
88710,-100,4,2,1,50,0,1
107623,-100,4,2,1,40,0,0

[Colours]
Combo1 : 230,98,111
Combo2 : 63,209,252
Combo3 : 239,109,254
Combo4 : 177,233,122

[HitObjects]
151,93,927,6,0,B|168:66|162:32|140:11,1,80,4|0,1:2|0:0,0:0:0:0:
70,63,1449,2,0,L|52:151,1,80,2|2,0:0|0:0,0:0:0:0:
15,220,1971,2,0,B|55:238|92:221|92:221|131:202|175:219,1,160,2|2,0:0|0:0,0:0:0:0:
241,268,2753,1,0,0:0:0:0:
301,204,3014,2,0,L|317:121,2,80,0|2|2,0:0|0:0|0:0,0:0:0:0:
347,279,3797,2,0,B|378:261|393:227|389:195,1,80,2|2,0:0|0:0,0:0:0:0:
415,130,4318,6,0,B|419:63|362:6|289:10|245:51,1,240,2|4,1:2|1:0,0:0:0:0:
189,119,5362,1,0,0:0:0:0:
115,166,5623,2,0,B|99:139|98:108|109:82,2,80,0|2|2,0:0|0:0|0:0,0:0:0:0:
193,206,6405,6,0,L|175:300,2,80,2|0|0,0:0|0:0|0:0,0:0:0:0:
281,199,7188,2,0,L|265:277,2,80,2|0|0,0:0|0:0|0:0,0:0:0:0:
369,191,7971,2,0,L|353:269,1,80,2|2,0:0|0:0,0:0:0:0:
331,354,8492,5,4,1:0:0:0:
462,237,9014,2,0,B|476:207|474:175|460:148,1,80,2|0,1:2|1:0,0:0:0:0:
408,91,9536,2,0,B|367:64|367:64|248:78,1,160,2|2,1:2|1:2,0:0:0:0:
170,96,10318,1,0,1:0:0:0:
119,168,10579,6,0,B|91:151|79:119|85:90,2,80,0|2|2,1:0|1:2|1:2,0:0:0:0:
206,183,11362,1,2,1:2:0:0:
142,244,11623,2,0,B|111:254|78:243|59:219,2,80,2|0|0,1:2|1:0|1:0,0:0:0:0:
226,268,12405,1,0,1:0:0:0:
206,183,12666,6,0,B|275:168|342:229|323:316|263:345,1,240,4|0,1:2|1:0,0:0:0:0:
226,268,13710,2,0,B|194:278|161:266|143:241,1,80,2|0,1:2|1:0,0:0:0:0:
114,168,14231,2,0,B|114:135|137:108|166:99,1,80,2|0,1:2|1:0,0:0:0:0:
242,86,14753,6,0,L|386:102,2,120,4|4|4,1:0|1:2|1:2,0:0:0:0:
216,215,15927,2,0,L|96:201,1,120,4|4,1:2|1:2,0:0:0:0:
9,191,16579,1,0,3:0:0:0:
22,277,16840,6,0,L|109:287,1,80,4|2,1:0|1:2,0:0:0:0:
189,297,17362,2,0,L|268:306,1,80,2|2,1:2|1:2,0:0:0:0:
356,311,17884,2,0,B|317:284|304:234|322:190|355:166,1,160,2|2,1:2|1:2,0:0:0:0:
407,239,18666,1,2,1:2:0:0:
436,156,18927,6,0,B|429:109|390:74|343:70|306:88,1,160,4|0,1:2|1:0,0:0:0:0:
227,242,19971,2,0,B|269:257|314:243|341:210|347:172,1,160,4|2,1:2|1:2,0:0:0:0:
259,159,20753,1,8,2:0:0:0:
172,175,21014,6,0,B|137:204|131:253|154:289,2,120,4|4|4,1:2|1:2|1:2,0:0:0:0:
293,122,22188,2,0,B|312:84|302:39|272:13,1,120,4|0,1:2|1:0,0:0:0:0:
216,81,22840,1,2,1:2:0:0:
139,37,23101,5,4,1:2:0:0:
50,184,23623,1,12,0:2:0:0:
165,315,24144,1,12,0:0:0:0:
324,249,24666,1,12,0:0:0:0:
308,75,25188,5,2,0:0:0:0:
181,213,33014,6,0,L|191:132,1,80,8|0,0:0|3:0,0:0:0:0:
276,113,33536,6,0,L|256:286,1,160,4|4,1:2|1:2,0:0:0:0:
245,359,34318,1,4,1:2:0:0:
328,330,34579,2,0,B|353:307|387:302|415:315,1,80,4|8,1:2|0:0,0:0:0:0:
489,323,35101,2,0,B|495:289|479:257|453:240,1,80,4|8,1:2|0:0,0:0:0:0:
383,215,35623,6,0,B|344:188|330:138|346:94|379:69,1,160,4|4,1:0|1:2,0:0:0:0:
428,141,36405,1,4,1:2:0:0:
472,217,36666,2,0,B|471:266|436:305|388:314|349:299,1,160,4|4,1:2|1:2,0:0:0:0:
219,199,37710,6,0,B|240:80,2,120,4|4|0,1:2|1:2|1:0,0:0:0:0:
196,284,38753,2,0,L|114:271,1,80,4|8,1:2|0:0,0:0:0:0:
101,184,39275,2,0,L|21:171,1,80,8|0,0:0|3:0,0:0:0:0:
17,82,39797,6,0,L|158:105,2,120,4|4|4,1:2|1:2|1:2,0:0:0:0:
129,11,40971,2,0,L|247:30,1,120,4|0,1:2|0:0,0:0:0:0:
333,51,41623,1,4,1:2:0:0:
274,117,41884,6,0,B|250:159|255:208|281:244,2,120,8|0|4,1:2|1:0|1:2,0:0:0:0:
394,172,43058,2,0,B|337:161|337:161|267:181|267:181|194:167,1,200,8|10,1:2|1:2,0:0:0:0:
113,148,43971,6,0,B|120:108|153:78|193:73|225:87,2,120,4|10|0,1:0|0:0|1:0,0:0:0:0:
168,315,45275,2,0,L|260:299,1,80,2|2,1:2|1:2,0:0:0:0:
333,282,45797,1,2,1:2:0:0:
420,270,46058,6,0,B|412:226|375:195|333:193,2,120,6|10|2,1:2|0:0|1:2,0:0:0:0:
386,354,47101,2,0,B|350:377|305:373|274:349,2,120,4|10|0,1:2|0:0|1:0,0:0:0:0:
420,270,48144,6,0,B|391:234|402:180|443:158,1,120,4|10,1:1|0:0,0:0:0:0:
256,33,49188,2,0,B|290:59|295:106|270:139,2,120,4|10|2,1:2|0:0|1:2,0:0:0:0:
168,23,50231,6,0,L|38:31,2,120,4|10|0,1:2|0:0|1:0,0:0:0:0:
256,33,51275,2,0,L|335:27,1,80,4|0,1:2|1:0,0:0:0:0:
376,105,51797,2,0,L|296:110,1,80,0|4,1:0|1:2,0:0:0:0:
223,159,52318,6,0,B|251:198|303:209|342:186,2,120,4|10|2,1:0|0:0|1:2,0:0:0:0:
57,219,53623,2,0,B|68:251|59:284|38:307,2,80,2|2|2,1:2|1:2|1:2,0:0:0:0:
8,145,54405,6,0,B|41:123|81:126|110:148,1,80,4|0,1:2|1:0,0:0:0:0:
151,191,54927,2,0,B|178:199|205:194|227:180,1,80,4|0,1:2|1:0,0:0:0:0:
298,127,55449,2,0,L|279:258,2,120,4|10|2,1:2|0:0|1:2,0:0:0:0:
285,39,56492,6,0,B|334:33|379:64|393:111|381:152,1,160,4|0,1:0|1:0,0:0:0:0:
368,223,57275,1,2,1:2:0:0:
307,287,57536,2,0,L|226:274,1,80,4|2,1:2|1:2,0:0:0:0:
157,221,58058,2,0,L|78:233,1,80,2|2,1:2|1:2,0:0:0:0:
4,281,58579,6,0,B|46:250|58:193|33:146|-6:124,1,160,4|4,1:2|1:2,0:0:0:0:
154,32,59623,2,0,B|114:72|119:138|164:172,1,160,4|0,1:2|1:0,0:0:0:0:
244,209,60405,1,0,1:0:0:0:
324,243,60666,6,0,B|372:215|417:220|460:251|460:251|422:188|446:116|492:91|492:91|457:41|391:33|378:104|365:145|365:145|339:148|317:158,1,560,4|0,1:0|0:0,0:0:0:0:
250,201,62753,6,0,B|191:219|131:217,2,120,8|8|8,0:0|0:0|0:0,0:0:0:0:
341,296,63927,2,0,B|399:314|459:312,1,120,8|8,0:0|0:0,0:0:0:0:
505,237,64579,1,0,3:0:0:0:
450,167,64840,5,4,1:0:0:0:
256,192,64971,12,2,66927,0:0:0:0:
178,313,69014,6,0,B|134:298|98:317|98:317|62:337|14:321,1,160,4|8,1:0|0:0,0:0:0:0:
150,201,70058,2,0,B|194:186|230:205|230:205|266:225|314:209,1,160,0|8,3:0|0:0,0:0:0:0:
272,130,70840,1,2,1:2:0:0:
359,133,71101,6,0,B|400:160|416:210|400:257|367:283,1,160,4|8,1:2|0:0,0:0:0:0:
214,337,72144,2,0,L|39:324,1,160,0|8,3:0|0:0,0:0:0:0:
16,245,72927,1,2,1:2:0:0:
26,157,73188,6,0,B|71:160|104:199|103:242,2,120,2|0|0,1:2|1:0|1:0,0:0:0:0:
16,245,74231,2,0,L|2:336,1,80,0|2,0:0|1:2,0:0:0:0:
88,350,74753,2,0,L|180:358,1,80,10|2,0:0|1:2,0:0:0:0:
242,310,75275,6,0,B|187:242|181:152|215:79,1,240,2|2,1:2|1:2,0:0:0:0:
301,88,76318,2,0,B|249:162|275:266|356:306,1,240,8|2,0:0|0:0,0:0:0:0:
407,238,77362,6,0,B|435:271|436:317|414:350,2,120,2|4|10,1:1|1:2|0:0,0:0:0:0:
387,152,78405,2,0,B|401:121|431:102|463:99,1,80,0|8,1:0|0:0,0:0:0:0:
493,27,78927,2,0,L|411:18,1,80,0|10,0:0|0:0,0:0:0:0:
325,23,79449,6,0,B|273:35|273:35|218:23|218:23|160:36,1,160,2|10,1:2|0:0,0:0:0:0:
83,57,80231,1,2,1:2:0:0:
17,116,80492,2,0,B|36:138|64:148|91:146,1,80,2|2,0:0|0:0,0:0:0:0:
156,202,81014,2,0,B|137:224|109:234|82:232,1,80,10|2,0:2|1:2,0:0:0:0:
99,319,81536,6,0,B|141:318|179:300|205:272,2,120,2|4|8,1:2|1:2|0:0,0:0:0:0:
18,282,82579,2,0,B|-6:250|-2:208|21:181,1,80,2|8,1:2|0:0,0:0:0:0:
69,144,83101,2,0,B|93:112|89:70|66:43,1,80,0|10,0:0|0:2,0:0:0:0:
150,14,83623,6,0,B|183:50|237:53|273:25,2,120,8|4|8,3:0|3:0|3:0,0:0:0:0:
125,143,84797,2,0,B|96:174|51:180|16:162,1,120,4|8,3:0|3:0,0:0:0:0:
58,85,85449,1,4,3:0:0:0:
189,83,85840,6,0,B|222:118|219:172|186:204,1,120,10|2,0:0|3:2,0:0:0:0:
128,251,86492,1,2,3:2:0:0:
177,324,86753,1,12,3:2:0:0:
177,324,87797,6,0,B|213:294|263:294|299:318,1,120,4|0,1:2|0:0,0:0:0:0:
443,227,88710,6,0,B|397:243|349:227|320:194,1,120,4|2,1:0|1:2,0:0:0:0:
286,128,89362,2,0,L|298:45,1,80,2|2,1:2|1:2,0:0:0:0:
216,12,89884,6,0,L|200:141,2,120,4|8|2,1:2|0:0|1:2,0:0:0:0:
129,29,90927,2,0,B|89:49|45:50|7:37,2,120,4|10|0,1:2|0:0|1:0,0:0:0:0:
216,12,91971,6,0,B|256:32|300:33|338:20,1,120,2|4,1:2|1:2,0:0:0:0:
179,179,93014,2,0,B|139:159|95:158|57:171,2,120,2|4|0,1:2|1:2|1:0,0:0:0:0:
234,247,94058,6,0,L|212:366,2,120,4|10|8,1:2|0:0|0:0,0:0:0:0:
319,265,95101,2,0,L|349:107,1,160,4|0,1:2|1:0,0:0:0:0:
372,22,95884,1,4,1:2:0:0:
441,75,96144,6,0,L|416:211,2,120,4|2|4,1:0|1:2|1:2,0:0:0:0:
267,43,97449,2,0,B|234:28|198:26|166:35,1,80,2|10,0:0|0:2,0:0:0:0:
105,60,97971,1,2,3:2:0:0:
66,138,98231,6,0,L|45:246,1,80,4|8,3:0|3:0,0:0:0:0:
29,302,98753,1,4,1:0:0:0:
197,250,99275,2,0,B|230:213|282:203|324:222,2,120,4|0|0,1:0|1:0|3:0,0:0:0:0:
142,319,100318,6,0,B|103:288|98:231|129:194,2,120,4|10|2,1:0|0:0|1:2,0:0:0:0:
228,338,101362,2,0,B|265:321|303:335|303:335|340:349|388:332,1,160,4|4,1:2|1:2,0:0:0:0:
464,297,102144,1,0,1:0:0:0:
417,222,102405,6,0,B|393:198|390:163|405:136,1,80,4|2,1:2|1:2,0:0:0:0:
458,82,102927,2,0,B|482:58|485:23|470:-4,1,80,4|2,1:2|1:2,0:0:0:0:
389,26,103449,2,0,B|336:2|276:14|237:50,1,160,4|2,1:0|3:2,0:0:0:0:
199,126,104231,1,4,3:0:0:0:
238,204,104492,6,0,B|199:220|159:204|159:204|120:186|82:201,1,160,0|0,3:0|0:0,0:0:0:0:
199,333,105536,2,0,B|237:349|277:333|277:333|316:315|354:330,1,160,4|4,3:0|3:0,0:0:0:0:
436,361,106318,1,8,0:0:0:0:
428,273,106579,6,0,B|395:236|395:181|426:141|466:128,1,160,0|2,3:0|3:0,0:0:0:0:
293,53,107623,2,0,B|342:82|352:148|315:191,1,160,8|0,1:2|0:0,0:0:0:0:
162,278,108666,6,0,L|19:257,2,120,4|0|0,1:0|1:0|1:0,0:0:0:0:
269,355,109840,2,0,B|305:319|359:313|401:335,1,120,0|0,1:0|1:0,0:0:0:0:
462,356,110492,1,0,1:0:0:0:
457,268,110753,6,0,B|416:237|411:177|446:140,2,120,0|0|0,1:0|1:0|1:0,0:0:0:0:
372,369,111927,2,0,L|248:354,1,120,0|0,1:0|1:2,0:0:0:0:
166,336,112579,1,8,1:2:0:0:
212,261,112840,6,0,B|242:221|238:167|208:132,2,120,10|8|8,0:0|0:0|0:0,0:0:0:0:
311,348,114014,2,0,B|335:313|377:298|415:306,1,120,8|2,0:0|3:2,0:0:0:0:
502,324,114666,1,2,3:0:0:0:
486,237,114927,6,0,L|505:107,2,120,4|4|4,1:2|1:2|1:2,0:0:0:0:
367,294,116101,2,0,B|317:307|268:283|246:240,2,120,10|10|14,1:2|1:2|1:2,0:0:0:0:
